The Hunger Games Mockingjay Part 2 2015 720p BluRay x264 ORG Hind...

  • Category Movies
  • Type Dubs/Dual Audio
  • Language English
  • Total size 1.0 GB
  • Uploaded By abuhamza420
  • Downloads 1996
  • Last checked 3 hours ago
  • Date uploaded 4 months ago
  • Seeders 5
  • Leechers 1

The Hunger Games: Mockingjay - Part...

DramaAdventureAction

With the nation of Panem in a full scale war, Katniss confronts President Snow in the final showdown. Teamed with a group of her closest friends – including Gale, Finnick, and Peeta – Katniss goes off on a mission with the unit from District 13 as they risk their lives to stage an assassination attempt on President Snow who has become increasingly obsessed with destroying her. The mortal traps, enemies, and moral choices that await Katniss will challenge her more than any arena she faced in The Hunger Games.

Infohash : 4E829337B4729E93084EC14A8AE4CF97BD9804BA







The Hunger Games Mockingjay Part 2 2015 720p BluRay x264 ORG Hindi PGS Subtitle English Audio - MoviesMB


MoviesMB.Com


Downloadhub.Icu


Buy PowerFull VPS And RDP From RDPArena.com

Use Coupon EXTRADESI get 30% Discount on All RDP and VPS Plans






Sample


Video
ID : 1
Format : AVC
Format/Info : Advanced Video Codec
Format profile : [email protected]
Format settings : CABAC / 5 Ref Frames
Format settings, CABAC : Yes
Format settings, RefFrames : 5 frames
Codec ID : V_MPEG4/ISO/AVC
Duration : 2 h 16 min
Bit rate : 949 kb/s
Width : 1 280 pixels
Height : 534 pixels
Display aspect ratio : 2.40:1
Frame rate mode : Constant
Frame rate : 23.976 (24000/1001) FPS
Color space : YUV
Chroma subsampling : 4:2:0
Bit depth : 8 bits
Scan type : Progressive
Bits/(Pixel*Frame) : 0.058
Stream size : 929 MiB (90%)
Language : English
Default : Yes
Forced : No
Color range : Limited
Color primaries : BT.709
Matrix coefficients : BT.709

Audio
ID : 2
Format : AAC
Format/Info : Advanced Audio Codec
Format profile : LC
Codec ID : A_AAC-2
Duration : 2 h 16 min
Bit rate : 96.0 kb/s
Channel(s) : 2 channels
Channel positions : Front: L R
Sampling rate : 48.0 kHz
Frame rate : 46.875 FPS (1024 SPF)
Compression mode : Lossy
Delay relative to video : -21 ms
Stream size : 94.0 MiB (9%)
Language : English
Default : Yes
Forced : No

Text #1
ID : 3
Format : PGS
Muxing mode : zlib
Codec ID : S_HDMV/PGS
Codec ID/Info : Picture based subtitle format used on BDs/HD-DVDs
Duration : 2 h 16 min
Bit rate : 16.8 kb/s
Count of elements : 2404
Stream size : 16.4 MiB (2%)
Language : Hindi
Default : Yes
Forced : No

Text #2
ID : 4
Format : UTF-8
Codec ID : S_TEXT/UTF8
Codec ID/Info : UTF-8 Plain Text
Duration : 2 h 4 min
Bit rate : 47 b/s
Count of elements : 1414
Stream size : 43.4 KiB (0%)
Language : English
Default : No
Forced : No



The Hunger Games Mockingjay Part 2 2015 720p BluRay x264 ORG Hindi PGS Subtitle English Audio - MoviesMB












Files:

The Hunger Games Mockingjay Part 2 2015 720p BluRay x264 ORG Hindi PGS Subtitle English Audio - MoviesMB
  • The Hunger Games Mockingjay Part 2 2015 720p BluRay x264 ORG Hindi PGS Subtitle English Audio - MoviesMB.mkv (1.0 GB)
  • Sample- The Hunger Games Mockingjay Part 2 2015 720p BluRay x264 ORG Hindi PGS Subtitle English Audio - MoviesMB (1).mkv (7.3 MB)
  • Buy RDP - RDPArena.com.url (0.1 KB)
  • Downloadhub.icu Free 300MB Movies Download.url (0.1 KB)
  • Download Latest Movies From MoviesMb.Com.url (0.1 KB)

Comments

Code:

  • UDP://TRACKER.LEECHERS-PARADISE.ORG:6969/ANNOUNCE
  • UDP://TRACKER.COPPERSURFER.TK:6969/ANNOUNCE
  • UDP://TRACKER.OPENTRACKR.ORG:1337/ANNOUNCE
  • udp://9.rarbg.to:2710/announce
  • UDP://EDDIE4.NL:6969/ANNOUNCE
  • udp://inferno.demonoid.pw:3391/announce
SitemapNetflix's Polar Review | Download APK | Queer Eye Season 2 torrent Spider-Man: A New Universe | Star Wars : Episode VII - Le Réveil de la Force TRUEFRENCH | Sezonul 2